» » The Doors - L.A. Woman

The Doors - L.A. Woman Mp3

  • Performer: The Doors
  • Album: L.A. Woman
  • Label: Elektra
  • Catalog #: K 42090, EKS 75011
  • MP3: 2143 mb | FLAC: 1536 mb
  • Country: UK
  • Style: Blues Rock, Psychedelic Rock
  • Rating: 4.5/5
  • Votes: 662
  • Category: Rock
The Doors - L.A. Woman Mp3

Tracklist

1Crawling King Snake4:57
2Been Down So Long4:40
3The Wasp (Texas Radio And The Big Beat)4:12
4Riders On The Storm7:14
5L'America4:35
6Cars Hiss By My Window4:10
7The Changeling4:20
8Love Her Madly3:18
9L.A. Woman7:49
10Hyacinth House3:10

Versions

CategoryArtistTitle (Format)LabelCategoryCountryYear
EKS-75011The Doors L.A. Woman ‎(LP, Album, Ter)ElektraEKS-75011US1971
CEK-75011, CEK 75011The Doors L.A. Woman ‎(Cass, Album, RE, Dol)Elektra, ElektraCEK-75011, CEK 75011CanadaUnknown
CAPP 75011 SAThe Doors L.A. Woman ‎(SACD, Hybrid, Multichannel, Album, RM)Analogue ProductionsCAPP 75011 SAUS2013
975 011-2Doors L.A. Woman ‎(CD, Album, RE, RM, Gol)Elektra975 011-2Europe1988
K 42090, EKS-75011Doors L.A. Woman ‎(LP, Album, RE)Elektra, ElektraK 42090, EKS-75011UK1973

Credits

  • BassJerry Scheff
  • Design Concept [Album Concept], DesignCarl Cossick
  • DrumsJohn Densmore
  • GuitarRobbie Krieger
  • Management [Personal]Bill Siddons
  • Photography By, Artwork [Visual Effects]Wendell Hamick
  • Piano, OrganRay Manzarek
  • ProducerBruce Botnick, The Doors
  • Rhythm GuitarMarc Benno (tracks: A3 to A5, B3)
  • VocalsJim Morrison
  • BassJerry Scheff
  • Design Concept [Album]Carl Cossick
  • DrumsJohn Densmore
  • GuitarRobby Krieger
  • Piano, OrganRay Manzarek
  • ProducerBruce Botnick, The Doors
  • Rhythm GuitarMarc Benno (tracks: A3 to A5, B3)
  • VocalsJim Morrison
  • Written-ByThe Doors
  • ProducerBruce Botnick
  • BassJerry Scheff
  • Design Concept [Album Concept], DesignCarl Cossick
  • DrumsJohn Densmore
  • GuitarRobbie Krieger
  • ManagementBill Siddons
  • Photography By, Effects [Visual]Wendell Hamick
  • Piano, OrganRay Manzarek
  • ProducerBruce Botnick, The Doors
  • Rhythm GuitarMarc Benno
  • VocalsJim Morrison

Notes

Track 8 Publishing = Modern Music Publishing Co., Inc., BMI.
Manufactured in the USA by Shape Optimedia
No barcode on this version.

DR Values of this CD:
foobar2000 1.3.3 / Dynamic Range Meter 1.1.1
log date: 2017-03-03 20:42:09
--------------------------------------------------------------------------------
Analyzed: The Doors / L.A. Woman EKS-75011-2
--------------------------------------------------------------------------------

DR Peak RMS Duration Track
--------------------------------------------------------------------------------
DR12 -2.00 dB -17.68 dB 4:21 01-The Changeling
DR14 -1.39 dB -18.33 dB 3:21 02-Love Her Madly
DR13 -1.24 dB -18.00 dB 4:41 03-Been Down So Long
DR15 -3.38 dB -21.24 dB 4:12 04-Cars Hiss By My Window
DR13 -0.88 dB -17.24 dB 7:51 05-L.A. Woman
DR14 -1.94 dB -18.33 dB 4:38 06-L'America
DR13 -1.65 dB -17.25 dB 3:12 07-Hyacinth House
DR14 -2.68 dB -20.96 dB 5:00 08-Crawling King Snake
DR14 -1.15 dB -18.19 dB 4:15 09-The Wasp (Texas Radio and the Big Beat)
DR16 -1.71 dB -22.98 dB 7:13 10-Riders on the Storm

According to information at http://dr.loudness-war.info/album/list/dr?artist=doors&album=l.a.+woman
the dynamic range values are a close match the West German Target edition The Doors - L.A. WomanCover without cornersGlossy sleeve with square corners.

[Rear sleeve]
℗ & © 1971 Elektra Asylum Records
Sleeve printed and made in England by Gothic Print Finishers Ltd., London SE92EQ

[Labels]
'Made in UK ℗ 1971' on the left side, no Doors logo, The Doors printed in capitals below track listing.Pressed on a green marbled vinyl.

Barcodes

  • Matrix / Runout (Side A, stamped exc. KD M2 etched): K.42090.A1 KD M2
  • Matrix / Runout (Side B, etched): .K.42090 B-3 GM STRAWBERRY
  • Matrix / Runout: 130-001 / B-5072 A
  • Rights Society: GEMA
  • Rights Society: ASCAP
  • Matrix / Runout (Runout, Side A, etched): EKS-75011 1
  • Matrix / Runout (Runout, Side B, etched): EKS-75011 2
  • Rights Society (Stamped): Siae

Companies

  • Record Company – Warner Communications
  • Phonographic Copyright (p) – Elektra/Asylum Records
  • Copyright (c) – Elektra/Asylum Records
  • Distributed By – WEA Records Ltd.
  • Printed By – Gothic Print Finishers Ltd.
  • Made By – Gothic Print Finishers Ltd.
  • Phonographic Copyright (p) – Elektra/Asylum Records
  • Copyright (c) – Elektra/Asylum Records
  • Manufactured By – Shape Optimedia, Inc.
  • Published By – Doors Music Co.
  • Recorded At – The Doors Workshop
  • Recorded At – The Doors Workshop
  • Distributed By – Dischi Ricordi S.p.A.

Video